vtt13.fr
Viola Wills - If You Could Read My Mind Download

Viola Wills - If You Could Read My Mind Download

Genre: Funk, Soul
Performer: Viola Wills
Album: If You Could Read My Mind
Country: UK
Released: 02 Sep 2013
Style: Disco, Hi NRG
Label: Cherry Pop
Catalog number: CRPOP126
MP3 version ZIP size: 1999 mb
FLAC version ZIP size: 2735 mb
WMA version ZIP size: 1099 mb
Rating: 4.4
Votes: 584
Tracklist
1If You Could Read My Mind ("A Tom Moulton Mix")
Remix – Tom MoultonWritten-By – Gordon Lightfoot
6:28
2Gonna Get Along Without You Now (Original Mix)
Written-By – Milton Kellum
4:40
3Gonna Get Along Without You Now (1984 Instrumental Celebration Remix)
Mixed By – A. Clark, J. McCabe, P. TownerWritten-By – Milton Kellum
3:38
4Don't Ever Stop Loving Me
Written-By – Viola Wills
3:58
5Starry Eyed
Written-By – Shuman, M. Garson
2:47
6That Same Old Feeling
Written-By – Tony MacCauley
3:13
7Gonna Get Along Without You Now
Written-By – Milton Kellum
3:17
8(There's) Always Something There To Remind Me
Written-By – Burt Bacharach/Hal David
4:04
9Let Me Be Your Rock
Written-By – Viola Wills
4:04
10Up On The Roof
Written-By – Gerry Goffin/Carole King
5:57
11If You Could Read My Mind
Written-By – Gordon Lightfoot
5:35
12Gonna Get Along Without You Now (Disco Version)
Written-By – Milton Kellum
5:17
13Secret Love
Written-By – Paul Francis Webster, Sammy Fain
4:07
14Gonna Get Along Without You Now (1984 Celebration Remix)
Mixed By – A. Clark, J. McCabe, P. TownerWritten-By – Milton Kellum
5:52
15 Bonus Tracks
16(There's) Always Something There To Remind Me (Disco Version)
Written-By – Burt Bacharach/Hal David
7:11
17Midnight Blue
Written-By – Carole Bayer Sager, Melissa Manchester
3:47

Versions
CategoryArtistTitle (Format)LabelCategoryCountryYear
OL 1507Viola Wills If You Could Read My Mind ‎(LP, Album)Ariola Records America, Hansa RecordsOL 1507US1980
203 183, 203 183-320Viola Wills If You Could Read My Mind ‎(LP, Album)Hansa International, Hansa International203 183, 203 183-320Netherlands1980
STYRL 017Viola Wills Soul Sisters ‎(LP, Album, RE)Style RecordsSTYRL 017UK1989
STYRD 017Viola Wills Soul Sisters ‎(CD, Album)Style RecordsSTYRD 017UK1989
203 183Viola Wills If You Could Read My Mind ‎(LP, Album)Hansa International203 183Germany1980

Credits
  • Arranged By [Bass & Strings]Brian Rodgers
  • Backing VocalsChris, David Ivey, Viola Wills
  • BassDennis (Blackbeard) Bovell, Tony Hibbert
  • Design [CD Booklet]Paul Bevoir
  • Design [LP Design]Cooke Key
  • Drums, PercussionPhil Towner
  • Engineer [Recording]Jerry Kitchingham, Mark Lusardi
  • Guitar [Guitars]John Kpiaye
  • Keyboards, Synthesizer [Synthesizers]Nick (Straker) Bailey
  • Liner NotesStephen Schnee
  • Photography ByBrian Aris
  • ProducerJerry McCabe
  • Reissue ProducerMalcolm McKenzie, Wayne A. Dickson
  • Reissue Producer [Associate]Christian John Wikane, Michal Bednarek
  • Remastered By [Digitally]Nick Robbins
  • Research [Audio]Michal Bednarek
  • Sleeve [Memorabilia Scans]Eric Charge, Malcolm McKenzie, Malridge Mace
  • Transcription By [Original Credits]Malcolm McKenzie

Notes
Recorded at Hillside Studios
& R.G. Jones Studios
Digitally remastered at Sound Mastering Ltd, London.

Additional thanks to Michal Bednarek, Christian John Wikane,
Bas Van Oers, Tom Moulton, Reid Whitelaw,
Paul Hatcher, Mal Mace, Eric Charge, Steve Schnee,
Paul Bevoir, Nick Robbins, Paul Robinson, Jon Roberts,
Roddie Gibb, Marcus Spehr,Adam Velasco, Matt Ingham, Dave
Timperley, David Akerman, Patrick Neville and Joe Marchese.

Tom Moulton appears courtesy of
[email protected]

Originally released on Ariola Records
℗ 1979 & 1980 High Fashion Music BV Hilversum, The Netherlands.
c/o Reid Whitelaw Productions/
Brookside [email protected], by arrangement with
The Licensing Partnership UK Ltd ([email protected])
This compilation © 2013 Cherry Pop Records.
Marketed and distributed by Cherry Red Records.
Made in EC/MCPS.
Companies
  • Phonographic Copyright (p) – High Fashion Music
  • Remastered At – Sound Mastering
  • Copyright (c) – Cherry Pop
  • Marketed By – Cherry Red
  • Distributed By – Cherry Red
  • Recorded At – Hillside Sound Studios, Ipswich
  • Recorded At – R.G. Jones Studios
  • Made By – Key Production
  • Licensed Through – The Licensing Partnership UK Ltd.

Barcodes
  • Barcode: 5013929432680
  • Matrix / Runout: 00095 53329 016 01 + 53329018
  • Mastering SID Code: IFPI LV27
  • Mould SID Code: IFPI 0127
  • Rights Society: MCPS
Video

Comments:
Thordibandis
foobar2000 1.4.4 / Dynamic Range Meter 1.1.1
log date: 2020-03-08 19:11:24

--------------------------------------------------------------------------------
Analyzed: Viola Wills / If You Could Read My Mind [UK 1980/2013 CD]
--------------------------------------------------------------------------------

DR Peak RMS Duration Track
--------------------------------------------------------------------------------
DR13 -0.27 dB -14.23 dB 5:36 01-If You Could Read My Mind
DR12 -0.27 dB -13.86 dB 3:48 02-Midnight Blue
DR12 -0.27 dB -13.62 dB 3:13 03-That Same Old Feeling
DR12 -0.27 dB -15.17 dB 3:59 04-Don't Ever Stop Loving Me
DR12 -0.27 dB -13.89 dB 4:05 05-(There's) Always Something There To Remind Me
DR12 -0.27 dB -13.30 dB 3:17 06-Gonna Get Along Without You Now
DR12 -0.27 dB -13.39 dB 4:08 07-Secret Love
DR12 -0.27 dB -13.18 dB 4:04 08-Let Me Be Your Rock
DR12 -0.27 dB -13.77 dB 2:48 09-Starry Eyed
DR12 -0.27 dB -13.46 dB 5:58 10-Up On The Roof
DR12 -0.27 dB -13.54 dB 5:17 11-Gonna Get Along Without You Now (Disco Version)
DR12 -0.30 dB -13.49 dB 6:28 12-If You Could Read My Mind ("A Tom Moulton Mix")
DR12 -0.27 dB -14.06 dB 7:11 13-(There's) Always Something There To Remind Me (Disco Version)
DR12 -0.27 dB -13.64 dB 4:41 14-Gonna Get Along Without You Now (Original Mix)
DR12 -0.27 dB -13.36 dB 5:53 15-Gonna Get Along Without You Now (1984 Celebration Remix)
DR13 -0.27 dB -13.94 dB 3:38 16-Gonna Get Along Without You Now (1984 Instrumental Celebration Remix)
--------------------------------------------------------------------------------

Number of tracks: 16
Official DR value: DR12

Samplerate: 44100 Hz
Channels: 2
Bits per sample: 16
Bitrate: 901 kbps
Codec: ALAC
================================================================================

Skunk Black
I was curious why the 1984 extended mix of "gonna get along without you now" is 5'52 on this cd instead of 5'40 on the 12 inch vinyl .. there are 2 seconds more at the end in the tape used but the speed is unstable that's why the during time is not correct it's not possible to correct the speed because variations so unregular speed.

Performer: Viola Wills
Genre: Funk, Soul
[xfgiven_name]Title: [xfvalue_name]
[/xfgiven_name] Country: UK
[xfgiven_year]Released: [xfvalue_year]
[/xfgiven_year]
Performer: Krypton
Genre: Electronic / Stage, Screen
[xfgiven_name]Title: [xfvalue_name]
[/xfgiven_name] Country: US
[xfgiven_year]Released: [xfvalue_year]
[/xfgiven_year]
Performer: Sandro Peres & Hakan Ludvigson Feat. Marcie Joy
Genre: Electronic
[xfgiven_name]Title: [xfvalue_name]
[/xfgiven_name] Country: UK
[xfgiven_year]Released: [xfvalue_year]
[/xfgiven_year]
Performer: Jeff Rushin
Genre: Electronic
[xfgiven_name]Title: [xfvalue_name]
[/xfgiven_name] Country: Netherlands
[xfgiven_year]Released: [xfvalue_year]
[/xfgiven_year]
Killers, The - Read My Mind Download

Killers, The - Read My Mind

Alternative Rock
Performer: Killers, The
Genre: Rock
[xfgiven_name]Title: [xfvalue_name]
[/xfgiven_name] Country: Germany
[xfgiven_year]Released: [xfvalue_year]
[/xfgiven_year]
Performer: Julia Jacklin
Genre: Rock / Pop
[xfgiven_name]Title: [xfvalue_name]
[/xfgiven_name] Country: US
[xfgiven_year]Released: [xfvalue_year]
[/xfgiven_year]
Performer: New Londonbeat
Genre: Pop
[xfgiven_name]Title: [xfvalue_name]
[/xfgiven_name] Country: Sweden
[xfgiven_year]Released: [xfvalue_year]
[/xfgiven_year]
Performer: Milton Jackson
Genre: Jazz
[xfgiven_name]Title: [xfvalue_name]
[/xfgiven_name] Country: Italy
[xfgiven_year]Released: [xfvalue_year]
[/xfgiven_year]
Performer: Viola Wills
Genre: Funk, Soul
[xfgiven_name]Title: [xfvalue_name]
[/xfgiven_name] Country: UK
[xfgiven_year]Released: [xfvalue_year]
[/xfgiven_year]
Performer: Viola Wills
Genre: Electronic
[xfgiven_name]Title: [xfvalue_name]
[/xfgiven_name] Country: Netherlands
[xfgiven_year]Released: [xfvalue_year]
[/xfgiven_year]